Skip to main content

BS015 Black

Audio Preview

audio
BS015 Black


Published April 18, 2010


All is vanity and vexation of spirit.
- Bible, Ecclesiastes I. 14.

00:00 Muhmood - TV News
03:16 Roto Visage - From Mud to Memory (part 2)
08:21 Виктор Iванiв & Muhmood - Жертва
10:28 Tardigrades - I Will Outlive Mankind
19:08 Spit It Out - Insulator
25:51 Jordan Prestrot - Bourgeois
28:32 Виктор Iванiв & Muhmood - Любимый Раджа
34:17 MONO ATRO - quem
37:46 Swimmingpool The Band - Black
44:57 Doc & Lena Selyanina - That fine line from your ear to your chin (is not so obvious anymore)
01:01:30 Krzysztof Stanislawski - Chaos Eternal
01:05:59 Muhmood - Finale


Run time 01:08:08

Notes

Black Square netlabel is about synthesis between image and a sound, music and a photo.

http://blacksquarenetlabel.blogspot.com/
blacksquarenetlabel@gmail.com

comment
Reviews

Reviewer: klonuo - - April 20, 2010
Subject: CUE sheet
Here is cue sheet for those wanting access to individual tracks:

--------8<------------------
REM GENRE Experimental; Ambient; Spoken Word
REM DATE 2010
REM COMMENT Black Square netlabel is about synthesis between image and a sound, music and a photo.
PERFORMER "Black Square Cloudcasts"
TITLE "All is vanity and vexation of spirit (Bible, Ecclesiastes I. 14.)"
FILE "BS015-Black.ogg" WAVE
TRACK 01 AUDIO
TITLE "TV News"
PERFORMER "Muhmood"
INDEX 01 00:00:00
TRACK 02 AUDIO
TITLE "From Mud to Memory (part 2)"
PERFORMER "Roto Visage"
INDEX 01 03:16:00
TRACK 03 AUDIO
TITLE "Жертва"
PERFORMER "Виктор Iванiв & Muhmood"
INDEX 01 08:21:00
TRACK 04 AUDIO
TITLE "I Will Outlive Mankind"
PERFORMER "Tardigrades"
INDEX 01 10:28:00
TRACK 05 AUDIO
TITLE "Insulator"
PERFORMER "Spit It Out"
INDEX 01 19:08:00
TRACK 06 AUDIO
TITLE "Bourgeois"
PERFORMER "Jordan Prestrot"
INDEX 01 25:51:00
TRACK 07 AUDIO
TITLE "Любимый Раджа"
PERFORMER "Виктор Iванiв & Muhmood"
INDEX 01 28:32:00
TRACK 08 AUDIO
TITLE "quem"
PERFORMER "MONO ATRO"
INDEX 01 34:17:00
TRACK 09 AUDIO
TITLE "Black"
PERFORMER "Swimmingpool The Band"
INDEX 01 37:46:00
TRACK 10 AUDIO
TITLE "That fine line from your ear to your chin (is not so obvious anymore)"
PERFORMER "Doc & Lena Selyanina"
INDEX 01 44:57:00
TRACK 11 AUDIO
TITLE "Chaos Eternal"
PERFORMER "Krzysztof Stanislawski"
INDEX 01 61:30:00
TRACK 12 AUDIO
TITLE "Finale"
PERFORMER "Muhmood"
INDEX 01 65:59:00
--------8<------------------

It's for Vorbis file. For mp3 just change the referring filename
SIMILAR ITEMS (based on metadata)
Black Square
by Black Square Cloudcast
audio
eye 495
favorite 0
comment 0
Black Square
by Black Square Cloudcast
audio
eye 728
favorite 0
comment 0
Black Square
by Black Square Cloudcast
audio
eye 680
favorite 0
comment 0
Black Square
by Black Square Cloudcast
audio
eye 1,738
favorite 0
comment 0
Black Square
by Black Square Cloudcast
audio
eye 638
favorite 0
comment 0
Black Square
by Black Square Cloudcast
audio
eye 461
favorite 1
comment 0
Black Square
by Black Square Cloudcast
audio
eye 1,080
favorite 0
comment 0
Black Square
by Black Square Cloudcast
audio
eye 998
favorite 0
comment 0
Black Square
by Black Square Cloudcast
audio
eye 648
favorite 0
comment 0
Black Square
by Black Square Cloudcast
audio
eye 523
favorite 0
comment 0